즐겨찾기 | 현재접속자 (130) | 최근게시물

총 게시물 551건, 최근 1 건
   

악녀 The.Villainess.2017.720p.BRRIP.x264.AC3.HORiZON-ArtSubs+720p.BRRip.HEVC.800MB.MkvCage

글쓴이 : 익명글쓴이 날짜 : 2017-11-05 (일) 14:48 조회 : 624
다운로드 : 악녀 The.Villainess.2017.720p.BRRIP.x264.AC3.HORiZON-ArtSubs+720p.BRRip.HEVC.800MB.MkvCage (3.9G)
171103 171104 171105 토렌트, 주비디오, magnet, 공유


어린 시절부터 킬러로 길러진 숙희.
그녀는 국가 비밀조직에 스카우트되어 새로운 삶을 살 기회를 얻는다. 

“10년만 일해주면 넌 자유야. 
하지만 가짜처럼 보이는 순간, 그땐 우리가 널 제거한다” 

살기 위해 죽여야만 하는 킬러 숙희 앞에
진실을 숨긴 의문의 두 남자가 등장하고, 
자신을 둘러싼 엄청난 비밀에 마주하게 되면서 운명에 맞서기 시작하는데... 

"보여줄게, 내가 어떻게 만들어졌는지"
2017년, 액션의 신세계가 펼쳐진다! 

General 
Unique ID : 86004186616994621657082720600227851145 (0x40B3CDC81EA2841EEF234AF41BF42B89) 
Complete name : The.Villainess.2017.720p.BRRIP.x264.AC3.HORiZON-ArtSubs.mkv 
Format : Matroska 
Format version : Version 4 / Version 2 
File size : 2.21 GiB 
Duration : 2 h 3 min 
Overall bit rate : 2 560 kb/s 
Movie name : The Villainess 
Encoded date : UTC 2017-11-03T16:24:11Z 
Writing application : HandBrake 1.0.7 2017040900 
Writing library : Lavf57.7.2 

Video 
ID : 1 
Format : AVC 
Format/Info : Advanced Video Codec 
Format profile : [email protected] 
Format settings : CABAC / 5 Ref Frames 
Format settings, CABAC : Yes 
Format settings, RefFrames : 5 frames 
Codec ID : V_MPEG4/ISO/AVC 
Duration : 2 h 3 min 
Bit rate : 2 061 kb/s 
Width : 1 280 pixels 
Height : 720 pixels 
Display aspect ratio : 2.40:1 
Frame rate mode : Constant 
Frame rate : 24.000 FPS 
Color space : YUV 
Chroma subsampling : 4:2:0 
Bit depth : 8 bits 
Scan type : Progressive 
Bits/(Pixel*Frame) : 0.093 
Stream size : 1.78 GiB (81%) 
Writing library : x264 core 148 r2708 86b7198 
Encoding settings : cabac=1 / ref=5 / deblock=1:-1:-1 / analyse=0x1:0x131 / me=umh / subme=9 / psy=1 / psy_rd=1.00:0.15 / mixed_ref=1 / me_range=16 / chroma_me=1 / trellis=2 / 8x8dct=0 / cqm=0 / deadzone=21,11 / fast_pskip=1 / chroma_qp_offset=-3 / threads=6 / lookahead_threads=1 / sliced_threads=0 / nr=0 / decimate=1 / interlaced=0 / bluray_compat=0 / constrained_intra=0 / bframes=3 / b_pyramid=2 / b_adapt=2 / b_bias=0 / direct=3 / weightb=1 / open_gop=0 / weightp=2 / keyint=240 / keyint_min=24 / scenecut=40 / intra_refresh=0 / rc_lookahead=60 / rc=crf / mbtree=1 / crf=21.0 / qcomp=0.60 / qpmin=0 / qpmax=69 / qpstep=4 / vbv_maxrate=14000 / vbv_bufsize=14000 / crf_max=0.0 / nal_hrd=none / filler=0 / ip_ratio=1.40 / aq=1:1.00 
Default : Yes 
Forced : No 
Color range : Limited 
Color primaries : BT.709 
Transfer characteristics : BT.709 
Matrix coefficients : BT.709 

Audio 
ID : 2 
Format : AC-3 
Format/Info : Audio Coding 3 
Codec ID : A_AC3 
Duration : 2 h 3 min 
Bit rate mode : Constant 
Bit rate : 448 kb/s 
Channel(s) : 6 channels 
Channel positions : Front: L C R, Side: L R, LFE 
Sampling rate : 48.0 kHz 
Frame rate : 31.250 FPS (1536 SPF) 
Bit depth : 16 bits 
Compression mode : Lossy 
Delay relative to video : -5 ms 
Stream size : 395 MiB (17%) 
Title : Surround 
Language : Korean 
Service kind : Complete Main 
Default : Yes 
Forced : No 

Menu 
00:00:00.000 : :Chapter 1 
00:08:21.542 : :Chapter 2 
00:16:27.167 : :Chapter 3 
00:23:29.458 : :Chapter 4 
00:41:03.667 : :Chapter 5 
00:49:19.625 : :Chapter 6 
00:54:39.750 : :Chapter 7 
01:04:55.708 : :Chapter 8 
01:16:03.542 : :Chapter 9 
01:42:00.250 : :Chapter 10 
01:59:01.417 : :Chapter 11 


SCREENSHOTS: 





악녀 The.Villainess.2017.720p.BRRIP.x264.AC3.HORiZON-ArtSubs+720p.BRRip.HEVC.800MB.MkvCage
[ 바로감상 ] [ 다운로드 ]

   

총 게시물 551건, 최근 1 건
번호 제목 날짜 조회
551
NR | Action, Adventure, FamilyFormat                      : MatroskaFormat version              : Version…
06:48 13
550
R | Action, ThrillerSize ...... 4.37 GBDuration .. 1 h 51 minVideo ..... 1280x536p / x264 / 4964 Kbps / 23.976 fpsAudio ..... English / AC-…
11-22 86
549
11-21 161
548
R | Comedy, DramaFormat                      : MatroskaFormat version              : Version 4 / Version …
11-19 474
547
NR | Drama, ThrillerVideo...: 1280x536p / [email protected] / 4564 kbps / 23.976 fps                         …
11-18 487
546
SIZE.......................: 4.36 GBRUNTIME................: 02:20:58VIDEO CODEC........: x264 10bits 4100 Kb/sRESOLUTION..........: 192…
11-18 517
545
토XX아, 보XX고, K동 동시 직공 게시합니다사이트마다 게시글은 조금씩 다를 수 있습니다 (보XX고엔 직샷…
11-16 642
544
11-16 1634
543
R | Drama, Thriller VideoID                                       : 1Format             …
11-16 466
542
[720p]VideoID                                       : 1Format                    …
11-15 594
541
PG-13 | Comedy, Crime, Drama Format                      : MatroskaFormat version              : Version …
11-15 465
540
전설의 무사 만지는 영원히 죽지 못하는 저주에 걸린다. 잔인하게 죽임당한 여동생 때문에 괴로워하던 …
11-14 509
539
Comedy, DramaFormat : MatroskaFormat version : Version 4 / Version 2File size : 2.22 GiBDuration : 1 h 45 minOverall bit rate : 3 009 kb/sM…
11-14 453
538
고교 시절, 새로운 학급에 같은 이치카와 미츠오라고 불리는 이름을 가진 이치카와 미츠오와 이츠카와 …
11-14 491
537
NR | Action, Fantasy  Format                                   : MatroskaFormat version        …
11-12 752
536
PG-13 | Action, Biography, DramaFormat                      : MatroskaFormat version              : Versi…
11-10 846
535
R | DramaFormat                      : MatroskaFormat version              : Version 4 / Version 2File si…
11-10 689
534
세상 제일 잘난 맛에 사는 섭외 1순위 앵그리 보디가드가 지명수배 1순위 구강 액션 지존 킬러를 보호하…
11-10 812
533
오늘 누나가 여자로 보이기 시작했다!공대생 현우와 작가지망생 지윤은 사촌지간으로, 집안끼리 가까워 …
11-10 946
532
뉴욕 컬럼비아 대학에서 인종 문제와 문화, 자신의 정체성을 깨달아 가는 청년 버락 오바마의 여정을 그…
11-07 829
 1  2  3  4  5  6  7  8  9  10  다음  맨끝