즐겨찾기 | 현재접속자 (120) | 최근게시물

총 게시물 551건, 최근 2 건
   

[무] 손오공 Wu Kong 2017 CHINESE 1080p BluRay x264 AC3 5.1 - Hon3y

글쓴이 : 익명글쓴이 날짜 : 2017-11-12 (일) 07:48 조회 : 750
다운로드 : [무] 손오공 Wu Kong 2017 CHINESE 1080p BluRay x264 AC3 5.1 - Hon3y (2.6G)
171110 171111 171112 무료보기, 유튜브, 다운로드, torrent


NR | Action, Fantasy  

Format                                   : Matroska
Format version                           : Version 4 / Version 2
File size                                : 3.02 GiB
Duration                                 : 2 h 3 min
Overall bit rate                         : 3 512 kb/s

Video
ID                                       : 1
Format                                   : AVC
Format/Info                              : Advanced Video Codec
Format profile                           : [email protected]
Format settings                          : CABAC / 5 Ref Frames
Format settings, CABAC                   : Yes
Format settings, RefFrames               : 5 frames
Codec ID                                 : V_MPEG4/ISO/AVC
Duration                                 : 2 h 3 min
Bit rate                                 : 3 000 kb/s
Width                                    : 1 920 pixels
Height                                   : 800 pixels
Display aspect ratio                     : 2.40:1
Frame rate mode                          : Constant
Frame rate                               : 24.000 FPS
Language                                 : Chinese
Default                                  : Yes
Forced                                   : No

Audio #1
ID                                       : 2
Format                                   : AC-3
Format/Info                              : Audio Coding 3
Format settings, Endianness              : Big
Codec ID                                 : A_AC3
Duration                                 : 2 h 3 min
Bit rate mode                            : Constant
Bit rate                                 : 256 kb/s
Channel(s)                               : 6 channels
Channel positions                        : Front: L C R, Side: L R, LFE
Sampling rate                            : 48.0 kHz
Frame rate                               : 31.250 FPS (1536 SPF)
Bit depth                                : 16 bits
Compression mode                         : Lossy
Stream size                              : 226 MiB (7%)
Language                                 : Chinese
Service kind                             : Complete Main
Default                                  : Yes
Forced                                   : No

Audio #2
ID                                       : 3
Format                                   : AC-3
Format/Info                              : Audio Coding 3
Format settings, Endianness              : Big
Codec ID                                 : A_AC3
Duration                                 : 2 h 3 min
Bit rate mode                            : Constant
Bit rate                                 : 256 kb/s
Channel(s)                               : 6 channels
Channel positions                        : Front: L C R, Side: L R, LFE
Sampling rate                            : 48.0 kHz
Frame rate                               : 31.250 FPS (1536 SPF)
Bit depth                                : 16 bits
Compression mode                         : Lossy
Stream size                              : 226 MiB (7%)
Language                                 : Chinese
Service kind                             : Complete Main
Default                                  : No
Forced                                   : No

[무] 손오공 Wu Kong 2017 CHINESE 1080p BluRay x264 AC3 5.1 - Hon3y
[ 바로감상 ] [ 다운로드 ]

   

총 게시물 551건, 최근 2 건
번호 제목 날짜 조회
551
NR | Action, Adventure, FamilyFormat                      : MatroskaFormat version              : Version…
06:48 8
550
R | Action, ThrillerSize ...... 4.37 GBDuration .. 1 h 51 minVideo ..... 1280x536p / x264 / 4964 Kbps / 23.976 fpsAudio ..... English / AC-…
11-22 78
549
11-21 153
548
R | Comedy, DramaFormat                      : MatroskaFormat version              : Version 4 / Version …
11-19 465
547
NR | Drama, ThrillerVideo...: 1280x536p / [email protected] / 4564 kbps / 23.976 fps                         …
11-18 476
546
SIZE.......................: 4.36 GBRUNTIME................: 02:20:58VIDEO CODEC........: x264 10bits 4100 Kb/sRESOLUTION..........: 192…
11-18 504
545
토XX아, 보XX고, K동 동시 직공 게시합니다사이트마다 게시글은 조금씩 다를 수 있습니다 (보XX고엔 직샷…
11-16 637
544
11-16 1621
543
R | Drama, Thriller VideoID                                       : 1Format             …
11-16 460
542
[720p]VideoID                                       : 1Format                    …
11-15 590
541
PG-13 | Comedy, Crime, Drama Format                      : MatroskaFormat version              : Version …
11-15 462
540
전설의 무사 만지는 영원히 죽지 못하는 저주에 걸린다. 잔인하게 죽임당한 여동생 때문에 괴로워하던 …
11-14 506
539
Comedy, DramaFormat : MatroskaFormat version : Version 4 / Version 2File size : 2.22 GiBDuration : 1 h 45 minOverall bit rate : 3 009 kb/sM…
11-14 452
538
고교 시절, 새로운 학급에 같은 이치카와 미츠오라고 불리는 이름을 가진 이치카와 미츠오와 이츠카와 …
11-14 490
537
NR | Action, Fantasy  Format                                   : MatroskaFormat version        …
11-12 751
536
PG-13 | Action, Biography, DramaFormat                      : MatroskaFormat version              : Versi…
11-10 842
535
R | DramaFormat                      : MatroskaFormat version              : Version 4 / Version 2File si…
11-10 686
534
세상 제일 잘난 맛에 사는 섭외 1순위 앵그리 보디가드가 지명수배 1순위 구강 액션 지존 킬러를 보호하…
11-10 810
533
오늘 누나가 여자로 보이기 시작했다!공대생 현우와 작가지망생 지윤은 사촌지간으로, 집안끼리 가까워 …
11-10 941
532
뉴욕 컬럼비아 대학에서 인종 문제와 문화, 자신의 정체성을 깨달아 가는 청년 버락 오바마의 여정을 그…
11-07 828
 1  2  3  4  5  6  7  8  9  10  다음  맨끝