즐겨찾기 | 현재접속자 (123) | 최근게시물

총 게시물 551건, 최근 2 건
   

[영] 러브 오브 마이 라이프 Love.of.My.Life.2017.720p.BluRay.x264-x0r

글쓴이 : 익명글쓴이 날짜 : 2017-11-14 (화) 07:48 조회 : 451
다운로드 : [영] 러브 오브 마이 라이프 Love.of.My.Life.2017.720p.BluRay.x264-x0r (1.9G)
171112 171113 171114 쥬비디오, 다운로드, 공유, 사이트


Comedy, Drama

Format : Matroska
Format version : Version 4 / Version 2
File size : 2.22 GiB
Duration : 1 h 45 min
Overall bit rate : 3 009 kb/s
Movie name : Love.of.My.Life.2017.720p.BluRay.x264-x0r
Encoded date : UTC 2017-11-13 13:52:28
Writing application : mkvmerge v7.7.0 (Six Voices) 64bit built on Mar 1 2015 01:50:05
Writing library : libebml v1.3.1 + libmatroska v1.4.2

Video
ID : 1
Format : AVC
Format/Info : Advanced Video Codec
Format profile : [email protected]
Format settings, CABAC : Yes
Format settings, ReFrames : 9 frames
Codec ID : V_MPEG4/ISO/AVC
Duration : 1 h 45 min
Bit rate : 2 560 kb/s
Width : 1 280 pixels
Height : 720 pixels
Display aspect ratio : 16:9
Frame rate mode : Constant
Frame rate : 23.976 (24000/1001) FPS
Color space : YUV
Chroma subsampling : 4:2:0
Bit depth : 8 bits
Scan type : Progressive
Bits/(Pixel*Frame) : 0.116
Stream size : 1.89 GiB (85%)
Writing library : x264 core 130 r2273 b3065e6
Encoding settings : cabac=1 / ref=9 / deblock=1:-3:-3 / analyse=0x3:0x133 / me=umh / subme=10 / psy=1 / psy_rd=1.00:0.25 / mixed_ref=0 / me_range=32 / chroma_me=1 / trellis=2 / 8x8dct=1 / cqm=0 / deadzone=6,6 / fast_pskip=0 / chroma_qp_offset=-4 / threads=24 / lookahead_threads=2 / sliced_threads=0 / nr=0 / decimate=1 / interlaced=0 / bluray_compat=0 / constrained_intra=0 / bframes=5 / b_pyramid=2 / b_adapt=2 / b_bias=0 / direct=3 / weightb=1 / open_gop=0 / weightp=2 / keyint=240 / keyint_min=24 / scenecut=40 / intra_refresh=0 / rc_lookahead=60 / rc=2pass / mbtree=1 / bitrate=2560 / ratetol=1.0 / qcomp=0.00 / qpmin=0 / qpmax=69 / qpstep=4 / cplxblur=20.0 / qblur=0.5 / vbv_maxrate=20000 / vbv_bufsize=25000 / nal_hrd=none / ip_ratio=1.10 / aq=1:1.00
Language : English
Default : Yes
Forced : No
Color range : Limited
Color primaries : BT.709
Transfer characteristics : BT.709
Matrix coefficients : BT.709

Audio
ID : 2
Format : AC-3
Format/Info : Audio Coding 3
Format settings, Endianness : Big
Codec ID : A_AC3
Duration : 1 h 45 min
Bit rate mode : Constant
Bit rate : 448 kb/s
Channel(s) : 6 channels
Channel positions : Front: L C R, Side: L R, LFE
Sampling rate : 48.0 kHz
Frame rate : 31.250 FPS (1536 spf)
Bit depth : 16 bits
Compression mode : Lossy
Stream size : 339 MiB (15%)
Title : Surround
Language : English
Service kind : Complete Main
Default : Yes
Forced : No

Text
ID : 3
Format : UTF-8
Codec ID : S_TEXT/UTF8
Codec ID/Info : UTF-8 Plain Text
Duration : 1 h 42 min
Bit rate : 90 b/s
Count of elements : 2563
Stream size : 68.5 KiB (0%)
Language : English
Default : Yes
Forced : No

[영] 러브 오브 마이 라이프 Love.of.My.Life.2017.720p.BluRay.x264-x0r
[ 바로감상 ] [ 다운로드 ]

   

총 게시물 551건, 최근 2 건
번호 제목 날짜 조회
551
NR | Action, Adventure, FamilyFormat                      : MatroskaFormat version              : Version…
06:48 8
550
R | Action, ThrillerSize ...... 4.37 GBDuration .. 1 h 51 minVideo ..... 1280x536p / x264 / 4964 Kbps / 23.976 fpsAudio ..... English / AC-…
11-22 78
549
11-21 153
548
R | Comedy, DramaFormat                      : MatroskaFormat version              : Version 4 / Version …
11-19 465
547
NR | Drama, ThrillerVideo...: 1280x536p / [email protected] / 4564 kbps / 23.976 fps                         …
11-18 476
546
SIZE.......................: 4.36 GBRUNTIME................: 02:20:58VIDEO CODEC........: x264 10bits 4100 Kb/sRESOLUTION..........: 192…
11-18 504
545
토XX아, 보XX고, K동 동시 직공 게시합니다사이트마다 게시글은 조금씩 다를 수 있습니다 (보XX고엔 직샷…
11-16 637
544
11-16 1621
543
R | Drama, Thriller VideoID                                       : 1Format             …
11-16 460
542
[720p]VideoID                                       : 1Format                    …
11-15 590
541
PG-13 | Comedy, Crime, Drama Format                      : MatroskaFormat version              : Version …
11-15 462
540
전설의 무사 만지는 영원히 죽지 못하는 저주에 걸린다. 잔인하게 죽임당한 여동생 때문에 괴로워하던 …
11-14 506
539
Comedy, DramaFormat : MatroskaFormat version : Version 4 / Version 2File size : 2.22 GiBDuration : 1 h 45 minOverall bit rate : 3 009 kb/sM…
11-14 452
538
고교 시절, 새로운 학급에 같은 이치카와 미츠오라고 불리는 이름을 가진 이치카와 미츠오와 이츠카와 …
11-14 490
537
NR | Action, Fantasy  Format                                   : MatroskaFormat version        …
11-12 750
536
PG-13 | Action, Biography, DramaFormat                      : MatroskaFormat version              : Versi…
11-10 842
535
R | DramaFormat                      : MatroskaFormat version              : Version 4 / Version 2File si…
11-10 686
534
세상 제일 잘난 맛에 사는 섭외 1순위 앵그리 보디가드가 지명수배 1순위 구강 액션 지존 킬러를 보호하…
11-10 810
533
오늘 누나가 여자로 보이기 시작했다!공대생 현우와 작가지망생 지윤은 사촌지간으로, 집안끼리 가까워 …
11-10 941
532
뉴욕 컬럼비아 대학에서 인종 문제와 문화, 자신의 정체성을 깨달아 가는 청년 버락 오바마의 여정을 그…
11-07 828
 1  2  3  4  5  6  7  8  9  10  다음  맨끝