즐겨찾기 | 현재접속자 (95) | 최근게시물
총 게시물 2,031건, 최근 10 건
   

[한글] 애나벨 Annabelle.2014.720p.BluRay.x264-SPARKS

글쓴이 : 익명글쓴이 날짜 : 2017-10-13 (금) 06:48 조회 : 122
다운로드 : [한글] 애나벨 Annabelle.2014.720p.BluRay.x264-SPARKS (4.0G)
171011 171012 171013 감상, 쥬비디오, torrent, 마그넷


R | Horror, Mystery, Thriller | 3 October 2014 (USA)  


Video
ID                                       : 1
Format                                   : AVC
Format/Info                              : Advanced Video Codec
Format profile                           : [email protected]
Format settings, CABAC                   : Yes
Format settings, ReFrames                : 5 frames
Codec ID                                 : V_MPEG4/ISO/AVC
Duration                                 : 1h 38mn
Bit rate                                 : 4819 Kbps
Width                                    : 1280 pixels
Height                                   : 536 pixels
Display aspect ratio                     : 2.40:1
Frame rate mode                          : Constant
Frame rate                               : 23.976 fps
Color space                              : YUV
Chroma subsampling                       : 4:2:0
Bit depth                                : 8 bits
Scan type                                : Progressive
Bits/(Pixel*Frame)                       : 0.293
Stream size                              : 3.24 GiB (74%)
Writing library                          : x264 core 144 r2525 40bb568
Encoding settings                        : cabac=1 / ref=5 / deblock=1:0:0 / analyse=0x3:0x133 / me=umh / subme=7 / psy=1 / psy_rd=1.00:0.00 / mixed_ref=1 / me_range=16 / chroma_me=1 / trellis=1 / 8x8dct=1 / cqm=0 / deadzone=21,11 / fast_pskip=0 / chroma_qp_offset=-2 / threads=18 / lookahead_threads=3 / sliced_threads=0 / nr=0 / decimate=1 / interlaced=0 / bluray_compat=0 / constrained_intra=0 / bframes=3 / b_pyramid=2 / b_adapt=1 / b_bias=0 / direct=1 / weightb=1 / open_gop=0 / weightp=2 / keyint=250 / keyint_min=23 / scenecut=40 / intra_refresh=0 / rc_lookahead=40 / rc=2pass / mbtree=1 / bitrate=4819 / ratetol=1.0 / qcomp=0.60 / qpmin=0 / qpmax=69 / qpstep=4 / cplxblur=20.0 / qblur=0.5 / ip_ratio=1.40 / aq=1:1.00
Language                                 : English
Default                                  : Yes
Forced                                   : No

Audio
ID                                       : 2
Format                                   : DTS
Format/Info                              : Digital Theater Systems
Mode                                     : 16
Format settings, Endianness              : Big
Codec ID                                 : A_DTS
Duration                                 : 1h 38mn
Bit rate mode                            : Constant
Bit rate                                 : 1509 Kbps
Channel(s)                               : 6 channels
Channel positions                        : Front: L C R, Side: L R, LFE
Sampling rate                            : 48.0 KHz
Bit depth                                : 24 bits
Compression mode                         : Lossy
Stream size                              : 1.04 GiB (24%)
Language                                 : English
Default                                  : Yes
Forced                                   : No

Menu
00:00:00.000                             : en:00:00:00.000
00:11:58.092                             : en:00:11:58.092
00:19:55.152                             : en:00:19:55.152
00:30:13.603                             : en:00:30:13.603
00:39:09.973                             : en:00:39:09.973
00:51:15.489                             : en:00:51:15.489
00:59:49.169                             : en:00:59:49.169
01:10:05.159                             : en:01:10:05.159
01:20:25.279                             : en:01:20:25.279
01:31:54.008                             : en:01:31:54.008
01:34:42.677                             : en:01:34:42.677

[한글] 애나벨 Annabelle.2014.720p.BluRay.x264-SPARKS
[ 바로감상 ] [ 다운로드 ]

   

총 게시물 2,031건, 최근 10 건
번호 제목 날짜 조회
2031
10-18 8
2030
          스튜어디스 ‘레나’는 산티아고 비행 스케줄 기간 동안 칠레에 있는 연인 ‘다니엘’과…
10-18 7
2029
10-18 6
2028
1847년의 아메리카. 개척과 야욕의 시대에 일확천금을 꿈꾸는 사람들은 금광을 캐기 위해 서쪽으로 영역…
10-18 6
2027
10-18 11
2026
네명의 갈 곳 없는 문제아들을 입양해서 사랑과 정성으로 키워준 양어머니, 에블린 머서가 슈퍼마켓에서…
10-18 6
2025
 1949년 1월, 국민당은 공산당에게 연패하면서 중국 북방 지역을 빼앗기고 남부 지역까지 점령당할 위기…
10-18 38
2024
실화를 바탕으로 한 전쟁 대서사 블록버스터가 온다!세 연인의 시간을 초월한 애틋한 사랑!1949년 1월 27일…
10-18 39
2023
화창한 어느 날, 수많은 하객들과 친구들의 축복을 받으며 댄(브라이언 디차트)과 스카일러(알렉사 베가)…
10-18 40
2022
하나뿐인 아들을 잃고 요양원에서 노년을 보내는 중국인 어머니에게 아들의 연인인 영국인 남자가 찾아…
10-18 40
2021
인간이 잔인해진 만큼 놈들은 더 영리해졌다! | <새벽의 저주> 이후 1년...어느 날 갑자기 무덤에서 살…
10-17 46
2020
10-17 36
2019
10-17 37
2018
<리메이닝>은 지구 종말에 대한 삶, 사랑, 믿음에 대한 질문을 던지는 초자연적 스릴러 액션 영화다. …
10-17 37
2017
10-17 35
2016
10-17 27
2015
10-17 30
2014
10-17 30
2013
10-17 28
2012
10-17 28
 1  2  3  4  5  6  7  8  9  10  다음  맨끝