즐겨찾기 | 현재접속자 (89) | 최근게시물
총 게시물 2,031건, 최근 10 건
   

[한글] 뻐꾸기 둥지 위로 날아간 새 One Flew Over the Cuckoos Nest 1975 1080p Bluray x265 10Bit AAC 5.1 - GetSchwifty

글쓴이 : 익명글쓴이 날짜 : 2017-10-13 (금) 21:48 조회 : 76
다운로드 : [한글] 뻐꾸기 둥지 위로 날아간 새 One Flew Over the Cuckoos Nest 1975 1080p Bluray x265 10Bit AAC 5.1 - GetSchwifty (3.9G)
171011 171012 171013 홈페이지, magnet, 무료보기, 쥬비디오

Source File:

One Flew Over the Cuckoo's Nest 1975 1080p BluRay REMUX VC-1 DD5.1-KRaLiMaRKo 



Media Information:


Code:

General 
Complete name : One Flew Over the Cuckoo's Nest 1975 1080p Bluray x265 10Bit AAC 5.1 - GetSchwifty.mkv 
Format : Matroska 
Format version : Version 4 / Version 2 
File size : 4.38 GiB 
Duration : 2 h 13 min 
Overall bit rate : 4 691 kb/s 
Movie name : One Flew Over the Cuckoo's Nest 
Encoded date : UTC 2017-10-10 12:55:51 

Video 
ID : 1 
Format : HEVC 
Format/Info : High Efficiency Video Coding 
Format profile : Main [email protected]@Main 
Codec ID : V_MPEGH/ISO/HEVC 
Duration : 2 h 13 min 
Bit rate : 4 088 kb/s 
Width : 1 920 pixels 
Height : 1 080 pixels 
Display aspect ratio : 16:9 
Frame rate mode : Constant 
Frame rate : 23.976 (24000/1001) FPS 
Color space : YUV 
Chroma subsampling : 4:2:0 
Bit depth : 10 bits 
Bits/(Pixel*Frame) : 0.082 
Stream size : 3.82 GiB (87%) 

Audio 
ID : 2 
Format : AAC 
Format/Info : Advanced Audio Codec 
Format profile : LC 
Codec ID : A_AAC 
Duration : 2 h 13 min 
Bit rate : 288 kb/s 
Channel(s) : 6 channels 
Channel positions : Front: L C R, Side: L R, LFE 
Sampling rate : 48.0 kHz 
Frame rate : 46.875 FPS (1024 SPF) 
Compression mode : Lossy 
Delay relative to video : 9 ms 
Stream size : 273 MiB (6%) 
Title : English AAC VBR 5.1 
Language : English 
Default : Yes 
Forced : No 

Text #18 
ID : 20 
Format : PGS 
Muxing mode : zlib 
Codec ID : S_HDMV/PGS 
Codec ID/Info : Picture based subtitle format used on BDs/HD-DVDs 
Duration : 2 h 13 min 
Bit rate : 20.9 kb/s 
Count of elements : 3120 
Stream size : 19.9 MiB (0%) 
Language : Korean 
Default : No 
Forced : No 

한글 자막 내장


범죄자인 랜들 맥머피는 교도소에서 정신 병원으로 후송된다. 정신 병원이 감옥보다는 자유로울 것으로 생각했던 맥머피는 전혀 그렇지 않다는 것을 깨닫는다. 정신 병원에 수감되어 있는 하딩, 마티니, 체스윅, 빌리, 데버, 시멜로, 추장, 프레데릭슨 등과 생활하면서 랜들은 그들이 겉으로는 전혀 문제가 없어 보이지만 보이지 않는 병원내의 압력에 의해 짓눌려 사는 죽은 인간들임을 간파한다. 그리고 그러한 압력의 주범이 간호사 밀드레드 래치드임을 알게 된다. 랜들은 환자들을 끌고 병원을 빠져나가 낚시를 다녀오거나 파티를 여는 등 의도적인 반항을 시도하지만 밀드레드로 대표되는 병원내의 시스템이 너무나 막강하다는 것을 꺼닫고 탈출을 결심하게 되는데....
[한글] 뻐꾸기 둥지 위로 날아간 새 One Flew Over the Cuckoos Nest 1975 1080p Bluray x265 10Bit AAC 5.1 - GetSchwifty
[ 바로감상 ] [ 다운로드 ]

   

총 게시물 2,031건, 최근 10 건
번호 제목 날짜 조회
2031
10-18 8
2030
          스튜어디스 ‘레나’는 산티아고 비행 스케줄 기간 동안 칠레에 있는 연인 ‘다니엘’과…
10-18 7
2029
10-18 6
2028
1847년의 아메리카. 개척과 야욕의 시대에 일확천금을 꿈꾸는 사람들은 금광을 캐기 위해 서쪽으로 영역…
10-18 6
2027
10-18 11
2026
네명의 갈 곳 없는 문제아들을 입양해서 사랑과 정성으로 키워준 양어머니, 에블린 머서가 슈퍼마켓에서…
10-18 6
2025
 1949년 1월, 국민당은 공산당에게 연패하면서 중국 북방 지역을 빼앗기고 남부 지역까지 점령당할 위기…
10-18 38
2024
실화를 바탕으로 한 전쟁 대서사 블록버스터가 온다!세 연인의 시간을 초월한 애틋한 사랑!1949년 1월 27일…
10-18 39
2023
화창한 어느 날, 수많은 하객들과 친구들의 축복을 받으며 댄(브라이언 디차트)과 스카일러(알렉사 베가)…
10-18 40
2022
하나뿐인 아들을 잃고 요양원에서 노년을 보내는 중국인 어머니에게 아들의 연인인 영국인 남자가 찾아…
10-18 40
2021
인간이 잔인해진 만큼 놈들은 더 영리해졌다! | <새벽의 저주> 이후 1년...어느 날 갑자기 무덤에서 살…
10-17 46
2020
10-17 36
2019
10-17 37
2018
<리메이닝>은 지구 종말에 대한 삶, 사랑, 믿음에 대한 질문을 던지는 초자연적 스릴러 액션 영화다. …
10-17 37
2017
10-17 35
2016
10-17 27
2015
10-17 30
2014
10-17 30
2013
10-17 28
2012
10-17 28
 1  2  3  4  5  6  7  8  9  10  다음  맨끝