즐겨찾기 | 현재접속자 (171) | 최근게시물
총 게시물 2,642건, 최근 6 건
   

[한글] 페이퍼 타운 Paper.Towns.2015.720p.BluRay.x264-x0r

글쓴이 : 익명글쓴이 날짜 : 2017-11-14 (화) 07:48 조회 : 269
다운로드 : [한글] 페이퍼 타운 Paper.Towns.2015.720p.BluRay.x264-x0r (5.9G)
171112 171113 171114 사이트, 다운, 쥬비디오, torrent


PG-13 | Drama, Mystery, Romance

Format : Matroska
Format version : Version 4 / Version 2
File size : 2.46 GiB
Duration : 1 h 49 min
Overall bit rate : 3 233 kb/s
Movie name : Paper.Towns.2015.720p.BluRay.x264-x0r
Encoded date : UTC 2017-11-13 12:14:52
Writing application : mkvmerge v7.7.0 (Six Voices) 64bit built on Mar 1 2015 01:50:05
Writing library : libebml v1.3.1 + libmatroska v1.4.2

Video
ID : 1
Format : AVC
Format/Info : Advanced Video Codec
Format profile : [email protected]
Format settings, CABAC : Yes
Format settings, ReFrames : 9 frames
Codec ID : V_MPEG4/ISO/AVC
Duration : 1 h 49 min
Bit rate : 2 560 kb/s
Width : 1 280 pixels
Height : 720 pixels
Display aspect ratio : 16:9
Frame rate mode : Constant
Frame rate : 23.976 (24000/1001) FPS
Color space : YUV
Chroma subsampling : 4:2:0
Bit depth : 8 bits
Scan type : Progressive
Bits/(Pixel*Frame) : 0.116
Stream size : 1.95 GiB (79%)
Writing library : x264 core 142 r2389 956c8d8
Encoding settings : cabac=1 / ref=9 / deblock=1:-3:-3 / analyse=0x3:0x133 / me=umh / subme=9 / psy=1 / psy_rd=1.00:0.25 / mixed_ref=0 / me_range=32 / chroma_me=1 / trellis=2 / 8x8dct=1 / cqm=0 / deadzone=6,6 / fast_pskip=0 / chroma_qp_offset=-4 / threads=12 / lookahead_threads=1 / sliced_threads=0 / nr=0 / decimate=1 / interlaced=0 / bluray_compat=0 / constrained_intra=0 / bframes=5 / b_pyramid=2 / b_adapt=2 / b_bias=0 / direct=3 / weightb=1 / open_gop=0 / weightp=2 / keyint=240 / keyint_min=24 / scenecut=40 / intra_refresh=0 / rc_lookahead=80 / rc=2pass / mbtree=1 / bitrate=2560 / ratetol=1.0 / qcomp=0.00 / qpmin=0 / qpmax=69 / qpstep=4 / cplxblur=20.0 / qblur=0.5 / vbv_maxrate=20000 / vbv_bufsize=25000 / nal_hrd=none / filler=0 / ip_ratio=1.10 / aq=1:1.00
Language : English
Default : Yes
Forced : No
Color range : Limited
Color primaries : BT.709
Transfer characteristics : BT.709
Matrix coefficients : BT.709

Audio #1
ID : 2
Format : AC-3
Format/Info : Audio Coding 3
Format settings, Endianness : Big
Codec ID : A_AC3
Duration : 1 h 49 min
Bit rate mode : Constant
Bit rate : 448 kb/s
Channel(s) : 6 channels
Channel positions : Front: L C R, Side: L R, LFE
Sampling rate : 48.0 kHz
Frame rate : 31.250 FPS (1536 spf)
Bit depth : 16 bits
Compression mode : Lossy
Delay relative to video : -5 ms
Stream size : 350 MiB (14%)
Title : Surround
Language : English
Service kind : Complete Main
Default : Yes
Forced : No

Audio #2
ID : 3
Format : AC-3
Format/Info : Audio Coding 3
Format settings, Endianness : Big
Codec ID : A_AC3
Duration : 1 h 49 min
Bit rate mode : Constant
Bit rate : 224 kb/s
Channel(s) : 2 channels
Channel positions : Front: L R
Sampling rate : 48.0 kHz
Frame rate : 31.250 FPS (1536 spf)
Bit depth : 16 bits
Compression mode : Lossy
Stream size : 175 MiB (7%)
Title : Commentray
Language : English
Service kind : Complete Main
Default : No
Forced : No

Text
ID : 4
Format : UTF-8
Codec ID : S_TEXT/UTF8
Codec ID/Info : UTF-8 Plain Text
Duration : 1 h 43 min
Bit rate : 68 b/s
Count of elements : 1890
Stream size : 52.3 KiB (0%)
Language : English
Default : Yes
Forced : No

[한글] 페이퍼 타운 Paper.Towns.2015.720p.BluRay.x264-x0r
[ 바로감상 ] [ 다운로드 ]

   

총 게시물 2,642건, 최근 6 건
번호 제목 날짜 조회
2642
PG | Biography, Comedy, Drama Format                      : MatroskaFormat version              : Version…
10:48 14
2641
R | Crime, Drama, Music(Duration): 1h 55mn(FileSize): 2.42 GiBVideo(Format): AVC - Advanced Video Codec(Format): x264(Resolution): 1280x720…
09:48 15
2640
PG | Fantasy, Romance(Duration): 2h 2mn(FileSize): 2.57 GiBVideo(Format): AVC - Advanced Video Codec(Format): x264(Resolution): 1280x720p(A…
08:48 19
2639
G | Drama, Family, Fantasy (Duration): 1h 43mn(FileSize): 1.99 GiBVideo(Format): AVC - Advanced Video Codec(Format): x264(Resolution): 1280…
08:48 18
2638
PG | Comedy, Family(Duration): 1h 32mn(FileSize): 1.57 GiBVideo(Format): AVC - Advanced Video Codec(Format): x264(Resolution): 1280x694p(As…
08:48 18
2637
Source File:Tommy Boy 1995 1080p Bluray REMUX AVC TrueHD 5.1 - R3db0x Media Information:Code:General Complete name : Tommy Boy 1995 1080p…
01:48 16
2636
2019년 11월 LA. 400층이나 되는 높이의 건물들로 가득 찬 거리와 끊임없이 번쩍이는 레온등과 광적 행위가 …
11-23 42
2635
줄거리2012년 2월, ‘나쁜 놈들의 전성시대’가 시작된다! 비리 세관 공무원 최익현, 보스 최형배를 만나…
11-23 42
2634
 The Island 2005 in 1080p, encoded with x265 in HEVC and AAC 5.1 English, with subtitles! Encoded using the time consuming 2 pass, 10 bit…
11-23 41
2633
         미국의 옛 서부. 그 시대는 황야를 개척해야 하는 남자, 여자 모두에게 뛰어난 자질들을 요…
11-23 40
2632
줄거리새로운 신화, 시리즈의 종결편2001년, 서로 엇갈린 운명의 두 남자가 있었다!경찰 내부에 침투한 …
11-23 32
2631
줄거리거친 운명 속에 던져진 그들이 온다!! 스타일리쉬 느와르 3부작 모든 것을 뒤바꾼 혼돈의 시대가 …
11-23 9
2630
경찰의 스파이가 된 범죄 조직원 범죄 조직의 스파이가 된 경찰 한번의 선택으로 인생이 바뀌어버린 두 …
11-23 10
2629
줄거리예술의 경지에 오른 위대한 무인, 그리고 두 명의 여인…역사상 가장 아름다운 무협 액션“쿵푸는…
11-23 12
2628
뮤지컬 《오페라의 유령》을 록음악과 함께 과감히 변형한 작품. 음악 제작자인 스완은 “The Paradise”란 …
11-23 11
2627
11-23 10
2626
11-23 11
2625
11-23 28
2624
11-23 47
2623
11-23 49
 1  2  3  4  5  6  7  8  9  10  다음  맨끝