즐겨찾기 | 현재접속자 (142) | 최근게시물
총 게시물 2,642건, 최근 6 건
   

[한글] 더 빌런 Ek Villain 2014 Hindi 1080p BluRay x264 DTS 5.1 MSubS - Hon3y

글쓴이 : 익명글쓴이 날짜 : 2017-11-14 (화) 08:48 조회 : 442
다운로드 : [한글] 더 빌런 Ek Villain 2014 Hindi 1080p BluRay x264 DTS 5.1 MSubS - Hon3y (3.8G)
171112 171113 171114 magnet, 무료, 유투브, 실시간


NR | Action, Crime, Drama

Source                    : BD50
Format                      : Matroska
Format version              : Version 4 / Version 2
File size                   : 4.37 GiB
Duration                    : 2 h 8 min
Overall bit rate            : 4 861 kb/s

Video
ID                          : 1
Format                      : AVC
Format/Info                 : Advanced Video Codec
Format profile              : [email protected]
Format settings, CABAC      : Yes
Format settings, ReFrames   : 5 frames
Codec ID                    : V_MPEG4/ISO/AVC
Duration                    : 2 h 8 min
Bit rate                    : 4 090 kb/s
Width                       : 1 920 pixels
Height                      : 816 pixels
Display aspect ratio        : 2.35:1
Frame rate mode             : Constant
Frame rate                  : 24.000 FPS
Language                    : Hindi
Default                     : Yes
Forced                      : No

Audio
ID                          : 2
Format                      : DTS
Format/Info                 : Digital Theater Systems
Mode                        : 16
Format settings, Endianness : Big
Codec ID                    : A_DTS
Duration                    : 2 h 8 min
Bit rate mode               : Constant
Bit rate                    : 768 kb/s
Channel(s)                  : 6 channels
Channel positions           : Front: L C R, Side: L R, LFE
Sampling rate               : 48.0 kHz
Frame rate                  : 93.750 FPS (512 spf)
Bit depth                   : 24 bits
Compression mode            : Lossy
Stream size                 : 708 MiB (16%)
Language                    : Hindi
Default                     : Yes
Forced                      : No

Text #1
ID                          : 3
Format                      : UTF-8
Codec ID                    : S_TEXT/UTF8
Codec ID/Info               : UTF-8 Plain Text
Duration                    : 2 h 6 min
Bit rate                    : 49 b/s
Count of elements           : 1567
Stream size                 : 45.8 KiB (0%)
Language                    : English
Default                     : Yes
Forced                      : No

[한글] 더 빌런 Ek Villain 2014 Hindi 1080p BluRay x264 DTS 5.1 MSubS - Hon3y
[ 바로감상 ] [ 다운로드 ]

   

총 게시물 2,642건, 최근 6 건
번호 제목 날짜 조회
2642
PG | Biography, Comedy, Drama Format                      : MatroskaFormat version              : Version…
10:48 14
2641
R | Crime, Drama, Music(Duration): 1h 55mn(FileSize): 2.42 GiBVideo(Format): AVC - Advanced Video Codec(Format): x264(Resolution): 1280x720…
09:48 15
2640
PG | Fantasy, Romance(Duration): 2h 2mn(FileSize): 2.57 GiBVideo(Format): AVC - Advanced Video Codec(Format): x264(Resolution): 1280x720p(A…
08:48 18
2639
G | Drama, Family, Fantasy (Duration): 1h 43mn(FileSize): 1.99 GiBVideo(Format): AVC - Advanced Video Codec(Format): x264(Resolution): 1280…
08:48 18
2638
PG | Comedy, Family(Duration): 1h 32mn(FileSize): 1.57 GiBVideo(Format): AVC - Advanced Video Codec(Format): x264(Resolution): 1280x694p(As…
08:48 18
2637
Source File:Tommy Boy 1995 1080p Bluray REMUX AVC TrueHD 5.1 - R3db0x Media Information:Code:General Complete name : Tommy Boy 1995 1080p…
01:48 16
2636
2019년 11월 LA. 400층이나 되는 높이의 건물들로 가득 찬 거리와 끊임없이 번쩍이는 레온등과 광적 행위가 …
11-23 42
2635
줄거리2012년 2월, ‘나쁜 놈들의 전성시대’가 시작된다! 비리 세관 공무원 최익현, 보스 최형배를 만나…
11-23 42
2634
 The Island 2005 in 1080p, encoded with x265 in HEVC and AAC 5.1 English, with subtitles! Encoded using the time consuming 2 pass, 10 bit…
11-23 41
2633
         미국의 옛 서부. 그 시대는 황야를 개척해야 하는 남자, 여자 모두에게 뛰어난 자질들을 요…
11-23 40
2632
줄거리새로운 신화, 시리즈의 종결편2001년, 서로 엇갈린 운명의 두 남자가 있었다!경찰 내부에 침투한 …
11-23 32
2631
줄거리거친 운명 속에 던져진 그들이 온다!! 스타일리쉬 느와르 3부작 모든 것을 뒤바꾼 혼돈의 시대가 …
11-23 9
2630
경찰의 스파이가 된 범죄 조직원 범죄 조직의 스파이가 된 경찰 한번의 선택으로 인생이 바뀌어버린 두 …
11-23 10
2629
줄거리예술의 경지에 오른 위대한 무인, 그리고 두 명의 여인…역사상 가장 아름다운 무협 액션“쿵푸는…
11-23 12
2628
뮤지컬 《오페라의 유령》을 록음악과 함께 과감히 변형한 작품. 음악 제작자인 스완은 “The Paradise”란 …
11-23 11
2627
11-23 10
2626
11-23 11
2625
11-23 28
2624
11-23 47
2623
11-23 49
 1  2  3  4  5  6  7  8  9  10  다음  맨끝