즐겨찾기 | 현재접속자 (64) | 최근게시물
총 게시물 159건, 최근 1 건
   

콩: 스컬 아일랜드 Kong Skull Island 2017 1080p 3D BluRay Half-SBS x264 AAC 5.1 - Hon3y

글쓴이 : 익명글쓴이 날짜 : 2017-07-07 (금) 17:48 조회 : 323
다운로드 : 콩: 스컬 아일랜드 Kong Skull Island 2017 1080p 3D BluRay Half-SBS x264 AAC 5.1 - Hon3y (4.4G)
170705 170706 170707 magnet, 토렌트, 다운, 유튜브
Kong Skull Island 2017 1080p 3D BluRay Half-SBS x264 AAC 5.1 - Hon3y 

Source BD @ FGT. Many Thanks 


Format : Matroska 
Format version : Version 4 / Version 2 
File size : 2.76 GiB 
Duration : 1 h 58 min 
Overall bit rate : 3 336 kb/s 
Movie name : Kong Skull Island 2017 3D- [email protected]<script data-cfhash='f9e31' type="text/javascript">
Format settings, CABAC : Yes 
Format settings, ReFrames : 5 frames 
Codec ID : V_MPEG4/ISO/AVC 
Duration : 1 h 58 min 
Bit rate : 3 000 kb/s 
Width : 1 920 pixels 
Height : 800 pixels 
Display aspect ratio : 2.40:1 
Frame rate mode : Constant 
Frame rate : 23.976 (24000/1001) FPS 


Audio 
ID : 2 
Format : AAC 
Format/Info : Advanced Audio Codec 
Format profile : LC 
Codec ID : A_AAC 
Duration : 1 h 58 min 
Bit rate : 320 kb/s 
Channel(s) : 6 channels 
Channel positions : Front: L C R, Side: L R, LFE 
Sampling rate : 48.0 kHz 


Text #1 
ID : 3 
Format : UTF-8 
Codec ID : S_TEXT/UTF8 
Codec ID/Info : UTF-8 Plain Text 
Duration : 1 h 57 min 
Bit rate : 44 b/s 
Count of elements : 1250 
Stream size : 38.8 KiB (0%) 
Language : English 
Default : Yes 
Forced : No 

Text #2 
ID : 4 
Format : PGS 
Muxing mode : zlib 
Codec ID : S_HDMV/PGS 
Codec ID/Info : Picture based subtitle format used on BDs/HD-DVDs 
Duration : 1 h 58 min 
Bit rate : 14.0 kb/s 
Count of elements : 3060 
Stream size : 11.8 MiB (0%) 
Language : English 
Default : No 
Forced : No 


     
콩: 스컬 아일랜드 Kong Skull Island 2017 1080p 3D BluRay Half-SBS x264 AAC 5.1 - Hon3y
[ 바로감상 ] [ 다운로드 ]

   

총 게시물 159건, 최근 1 건
번호 제목 날짜 조회
159
03:48 3
158
Kong Skull Island 2017 1080p 3D BluRay Half-SBS x264 AAC 5.1 - Hon3y Source BD @ FGT. Many Thanks Format : Matroska Format version : Ver…
07-07 324
157
Kong.Skull.Island.2017.1080p.3D.BluRay.Half-OU.x264.DTS-HD.MA.7.1-FGT (25.45 GB)Kong.Skull.Island.2017.1080p.3D.BluRay.Half-SBS.x264.DTS-H…
06-28 528
156
Kong.Skull.Island.2017.3D.10800p.BRRip.Half-SBS.x264.AAC-Ozlem === NFO === Encoder...........: Ozlem File Size.........: 1.73 GB Source…
06-25 533
155
Genre: Action | Adventure | Fantasy | Sci-Fi IMDB Rating: 6.9/10 from 101,513 users Directed by: Jordan Vogt-Roberts Starring: Tom Hiddl…
06-24 558
154
줄거리 홀로 야생에 남겨진 작고 어린 공룡 파치의 위대한 모험!거대한 몸집과 머리 주변에 멋진 뿔을 …
06-20 634
153
줄거리 홀로 야생에 남겨진 작고 어린 공룡 파치의 위대한 모험!거대한 몸집과 머리 주변에 멋진 뿔을 …
06-20 554
152
06-18 504
151
06-16 507
150
SCREENSHOTS
06-15 512
149
06-15 463
148
06-15 470
147
06-15 428
146
06-15 388
145
06-15 351
144
Title :: ROGUE ONE (2016)Quality :: 3D - 1080p BRRiPEncoded Size :: 2.85GBRipped By :: ShAaNiGSCREENSHOTS 
06-15 367
143
Storyline:실패 확률 97.6%, 불가능한 임무!“이번에 성공 못하면, 될 때까지, 승리할 때까지 싸울 겁니다”희…
06-15 354
142
06-15 356
141
06-15 357
140
06-15 353
 1  2  3  4  5  6  7  8  맨끝